<?xml version="1.0" standalone="no"?>
<!DOCTYPE svg PUBLIC "-//W3C//DTD SVG 1.1//EN" "http://www.w3.org/Graphics/SVG/1.1/DTD/svg11.dtd" >
<svg xmlns="http://www.w3.org/2000/svg">
<metadata>Generated by IcoMoon</metadata>
<defs>
<font id="ekodarpol-font-set" horiz-adv-x="1024">
<font-face units-per-em="1024" ascent="960" descent="-64" />
<missing-glyph horiz-adv-x="1024" />
<glyph unicode="&#x20;" horiz-adv-x="512" d="" />
<glyph unicode="&#xe900;" glyph-name="down-circle" d="M512-64c-282.327 0-512 229.69-512 512 0 282.327 229.673 512 512 512s512-229.673 512-512c0-282.31-229.673-512-512-512zM512 926.968c-264.093 0-478.968-214.858-478.968-478.968s214.875-478.968 478.968-478.968 478.968 214.875 478.968 478.968-214.875 478.968-478.968 478.968zM512 220.11l-178.49 178.473 23.354 23.354 155.136-155.119 155.136 155.119 23.354-23.354zM495.484 652.536h33.032v-409.071h-33.032v409.071z" />
<glyph unicode="&#xe901;" glyph-name="paski" horiz-adv-x="9365" d="M1020.54 960.254l179.138-230.112-1020.432-794.388-179.138 230.112 1020.432 794.388zM2041.215 960.239l179.138-230.112-1020.432-794.388-179.138 230.112 1020.432 794.388zM3061.876 960.225l179.138-230.112-1020.432-794.388-179.138 230.112 1020.432 794.388zM4082.552 960.21l179.138-230.112-1020.432-794.388-179.138 230.112 1020.432 794.388zM5103.213 960.21l179.138-230.112-1020.432-794.388-179.138 230.112 1020.432 794.388zM6123.889 960.196l179.138-230.112-1020.432-794.388-179.138 230.112 1020.432 794.388zM7144.55 960.181l179.138-230.112-1020.432-794.388-179.138 230.112 1020.432 794.388zM8165.225 960.166l179.138-230.112-1020.432-794.388-179.138 230.112 1020.432 794.388zM9185.886 960.166l179.138-230.112-1020.432-794.388-179.138 230.112 1020.432 794.388z" />
<glyph unicode="&#xe902;" glyph-name="fala" horiz-adv-x="8201" d="M8200.747-64c-386.255 0-577.059 174.539-778.934 359.193-210.486 192.581-427.669 391.449-861.352 391.449-433.546 0-650.866-198.868-860.942-391.176-202.285-185.064-392.952-359.466-779.208-359.466s-577.059 174.539-778.934 359.193c-210.349 192.581-427.669 391.449-861.215 391.449-433.82 0-651.003-198.868-860.942-391.176-202.285-185.064-392.952-359.466-779.208-359.466s-577.059 174.539-778.934 359.193c-210.212 192.581-427.396 391.449-861.078 391.449v273.358c539.883 0 820.211-256.683 1045.322-462.932 189.437-173.309 314.499-287.71 594.691-287.71s405.117 114.264 594.281 287.436c225.521 206.522 505.849 463.206 1045.869 463.206 539.609 0 820.075-256.683 1045.459-462.932 189.437-173.446 314.499-287.71 594.691-287.71s405.117 114.264 594.281 287.436c225.794 206.522 506.259 463.206 1045.869 463.206 539.746 0 820.211-256.547 1045.322-462.659 189.711-173.582 314.772-287.983 594.964-287.983v-273.358z" />
<glyph unicode="&#xe903;" glyph-name="bar" horiz-adv-x="30720" d="M0 960h30720v-1024h-30720v1024z" />
<glyph unicode="&#xe904;" glyph-name="angle-left" horiz-adv-x="558" d="M512-64l-512 512 512 512 46.092-46.092-465.908-465.908 465.908-465.908z" />
<glyph unicode="&#xe905;" glyph-name="angle-right" horiz-adv-x="558" d="M46.092-64l-46.092 46.092 465.908 465.908-465.908 465.908 46.092 46.092 512-512z" />
<glyph unicode="&#xe906;" glyph-name="arrow-right" horiz-adv-x="1227" d="M715.128 960l-125.754-125.754 297.399-297.31h-886.773v-177.87h886.773l-297.399-297.31 125.754-125.754 512.089 512z" />
<glyph unicode="&#xe907;" glyph-name="chevron-down" horiz-adv-x="1811" d="M905.521-64l-905.521 905.521 118.479 118.479 787.041-787.041 786.958 787.041 118.479-118.479z" />
<glyph unicode="&#xe908;" glyph-name="chevron-up" horiz-adv-x="1811" d="M1692.478-64l-786.958 787.041-787.041-787.041-118.479 118.479 905.521 905.521 905.437-905.521z" />
<glyph unicode="&#xe909;" glyph-name="chevron-right" horiz-adv-x="600" d="M88.213-64l-88.213 88.213 423.787 423.787-423.787 423.787 88.213 88.213 512-512z" />
<glyph unicode="&#xe90a;" glyph-name="chevron-left" horiz-adv-x="600" d="M512-64l-512 512 512 512 88.213-88.213-423.787-423.787 423.787-423.787z" />
<glyph unicode="&#xe90b;" glyph-name="arrow-curved" horiz-adv-x="966" d="M531.357 960l-106.709-106.709 252.359-252.283h-677.007v-665.008h150.932v514.075h526.074l-252.359-252.208 106.709-106.709 434.534 434.383z" />
<glyph unicode="&#xe90c;" glyph-name="cart" horiz-adv-x="1088" d="M1081.297 765.3c-6.609 9.030-17.036 14.336-28.207 14.336h-785.455c-1.443 0-2.979-0.093-4.515-0.279l-32.303 93.184c-3.398 9.635-10.752 17.315-20.201 21.085l-162.909 63.953c-18.013 7.075-38.214-1.769-45.289-19.689-7.028-17.967 1.769-38.26 19.689-45.242l148.015-58.182 181.108-522.007c-8.006-2.839-14.755-8.89-17.827-17.501l-52.41-145.455c-3.165-8.937-1.862-18.804 3.584-26.577 5.446-7.727 14.336-12.381 23.785-12.381h26.903c-16.617-18.525-26.903-42.961-26.903-69.818 0-57.716 47.057-104.727 104.727-104.727 57.763 0 104.774 47.011 104.774 104.727 0 26.857-10.287 51.293-26.903 69.818h228.305c-16.617-18.525-26.903-42.961-26.903-69.818 0-57.716 47.011-104.727 104.774-104.727s104.727 47.011 104.727 104.727c0 26.857-10.24 51.293-26.903 69.818h32.675c16.058 0 29.044 13.033 29.044 29.091 0 16.105-12.986 29.091-29.044 29.091h-557.894l32.442 90.112c4.189-1.769 8.704-2.839 13.452-2.839h512c15.174 0 28.579 9.821 33.233 24.25l145.455 453.818c3.444 10.659 1.536 22.249-5.027 31.232zM413.091-5.818c-25.647 0-46.499 20.899-46.499 46.545 0 25.693 20.852 46.545 46.499 46.545 25.693 0 46.545-20.852 46.545-46.545 0-25.647-20.899-46.545-46.545-46.545zM797.091-5.818c-25.693 0-46.545 20.899-46.545 46.545 0 25.693 20.852 46.545 46.545 46.545 25.647 0 46.499-20.852 46.499-46.545 0.047-25.647-20.852-46.545-46.499-46.545zM980.061 631.296h-178.129v78.522h203.311l-25.181-78.522zM928.815 471.273h-126.883v90.205h155.788l-28.905-90.205zM571.159 471.273v90.205h161.001v-90.205h-161.001zM732.16 401.455v-75.636h-161.001v75.636h161.001zM338.758 561.478h162.583v-90.205h-131.351l-31.232 90.205zM571.159 631.296v78.522h161.001v-78.569h-161.001zM501.341 709.818v-78.569h-186.833l-27.276 78.569h214.109zM394.24 401.455h107.101v-75.636h-80.849l-26.252 75.636zM801.932 325.818v75.636h104.495l-24.25-75.636h-80.244z" />
<glyph unicode="&#xe90d;" glyph-name="tetris" horiz-adv-x="1011" d="M959.997 407.806h-370.798c-27.929 0-50.551-22.576-50.551-50.504v-370.751c0-28.022 22.622-50.551 50.551-50.551h370.798c27.882 0 50.504 22.529 50.504 50.551v370.751c0 27.882-22.622 50.504-50.504 50.504zM421.302 407.806h-370.844c-27.835 0-50.458-22.622-50.458-50.504v-370.751c0-28.022 22.622-50.551 50.458-50.551h370.844c27.929 0 50.504 22.529 50.504 50.551v370.751c0 27.882-22.622 50.504-50.504 50.504zM959.997 960h-370.798c-27.929 0-50.551-22.576-50.551-50.458v-370.844c0-27.882 22.622-50.504 50.551-50.504h370.798c27.882 0 50.504 22.622 50.504 50.504v370.844c0 27.882-22.622 50.458-50.504 50.458z" />
<glyph unicode="&#xe90e;" glyph-name="user" horiz-adv-x="802" d="M47.337 68.003v41.751l-46.452-1.117-0.884 19.875 13.731 18.292 13.731 14.336h66.141l0.326-50.176-46.592-1.117v-41.844zM31.604 111.523l-30.767-1.164 46.499 0.279-15.732 0.884zM755.34 65.024v38.121l-46.592 1.583c0.186 51.852 41.844 53.341 46.592 53.341h20.201l13.777-14.708c14.196-15.127 13.033-32.442 12.474-41.798l-46.406 1.583v-38.121zM401.315-64c-300.777 0-379.252 102.865-393.542 127.069l-5.911-0.047-1.024 47.569 29.696 0.326-29.51 1.955 0.326 14.848c4.143 220.532 43.38 313.344 245.76 351.744-49.804 51.34-79.732 126.371-79.732 206.336 0 74.985 0 274.199 233.937 274.199s233.937-199.168 233.937-274.199c0-79.453-29.51-153.879-78.569-205.126 204.94-33.932 241.245-138.845 244.783-360.122l0.279-13.731-38.447-1.489 38.54-0.698-1.629-46.545-8.564-0.047c-21.039-30.906-107.287-122.042-390.33-122.042zM93.929 102.865c17.873-17.827 90.903-73.775 307.386-73.775 214.202 0 287.93 54.784 307.386 74.333l0.605 1.21c-0.047 0.559-0.093 1.071-0.186 1.629v0c-0.465 4.003-0.698 8.285-0.791 12.753-3.305 209.315-21.737 256.047-209.175 275.363v0.093c-30.255 2.839-68.282 25.926-68.515 82.944l-0.093 27.927 24.529 13.219c52.876 28.486 87.040 94.115 87.040 167.238 0.047 137.123-34.164 181.108-140.8 181.108s-140.847-43.985-140.847-181.108c0-72.844 33.978-138.38 86.621-166.959l24.297-13.219v-27.695c0-58.694-39.61-81.687-68.561-83.642-186.321-25.972-204.753-71.215-208.477-268.288-0.093-3.724-0.186-8.751-0.745-14.383h0.233l-0.233-0.047c-0.047-0.326-0.093-0.652-0.14-0.977h0.372v-7.727z" />
<glyph unicode="&#xe910;" glyph-name="phone" horiz-adv-x="1023" d="M1002.357 61.164c-8.834-8.834-18.22-17.668-27.053-27.053-18.772-17.612-37.544-36.439-55.211-55.763-28.158-31.47-62.941-44.721-112.079-42.016-62.941 3.865-128.035 22.637-205.882 60.787-147.414 71.774-277.215 172.811-384.269 300.348-86.185 102.637-147.414 204.281-187.221 311.391-24.293 65.646-33.679 116.44-29.814 164.529 2.153 31.415 13.803 56.812 35.335 77.24 18.772 18.22 36.439 36.439 54.052 54.052 11.594 11.65 23.796 23.796 35.887 35.887 8.834 8.834 23.189 19.324 40.856 19.324 17.612 0 32.022-10.435 41.408-19.324 16.563-16.563 33.127-33.127 49.138-49.138 7.73-7.73 14.962-15.459 22.637-22.637 7.177-7.177 14.355-14.41 21.532-21.532 16.011-16.066 32.022-32.575 48.586-48.641 28.765-28.71 28.765-56.812 0-84.97-5.521-6.073-10.987-11.65-16.563-17.171-23.189-23.189-46.929-47.426-71.222-70.615-11.594-11.65-23.189-30.973-11.594-59.076 18.22-44.224 45.273-87.841 84.473-135.819 72.327-88.89 147.966-157.904 230.782-209.857 12.699-8.226 26.004-14.355 38.648-20.373 7.177-3.865 14.355-7.233 20.98-11.097 8.834-4.969 17.171-7.122 25.949-7.122l119.256 99.932 6.073 6.073c9.386 9.386 23.741 19.821 41.408 19.821 17.115 0 31.47-10.435 40.856-19.821 46.929-46.377 94.963-94.466 142.997-142.997 27.661-26.943 27.661-56.26 0.055-84.363z" />
<glyph unicode="&#xe912;" glyph-name="envelope" horiz-adv-x="1349" d="M1188.844 960h-1028.873c-88.056 0-159.971-69.174-159.971-153.663v-716.674c0-85.228 71.915-153.663 159.971-153.663h1028.873c87.969 0 159.971 68.435 159.971 153.663v716.674c0 84.489-71.959 153.663-159.971 153.663zM1212.598 860.632l-537.821-455.769-537.908 455.769h1075.729zM1256.844 46.157c0-9.832-11.181-18.185-24.45-18.185h-1115.928c-12.617 0-23.711 8.353-23.711 18.185v708.669l508.628-436.060c9.136-8.353 21.666-12.53 33.543-12.53h78.876c12.573 0 24.45 4.177 34.239 12.53l508.802 436.060v-708.669z" />
<glyph unicode="&#xe913;" glyph-name="marker" horiz-adv-x="774" d="M387.155 372.452c110.444 0 200.345 89.901 200.345 200.369s-89.901 200.369-200.345 200.369-200.321-89.901-200.321-200.369 89.877-200.369 200.321-200.369zM387.155 704.65c72.682 0 131.853-59.123 131.853-131.877s-59.171-131.877-131.853-131.877-131.853 59.123-131.853 131.877 59.195 131.877 131.853 131.877zM387.155 960c-213.446 0-387.155-173.685-387.155-387.203 0-198.972 311.39-575.699 346.672-617.723 10.018-12.114 24.733-19.049 40.507-19.049 15.533 0 30.176 6.791 40.363 18.833 35.522 42.506 346.792 420.943 346.792 617.94-0.024 213.518-173.733 387.203-387.179 387.203zM387.155 892.4c176.599 0 320.349-143.726 320.349-320.373 0-120.294-165.593-372.031-320.349-568.426-154.756 196.299-320.349 448.036-320.349 568.45 0 176.647 143.75 320.349 320.349 320.349z" />
<glyph unicode="&#xe915;" glyph-name="small-marker" horiz-adv-x="774" d="M387.135 372.427c110.435 0 200.336 89.901 200.336 200.387s-89.901 200.387-200.336 200.387-200.336-89.901-200.336-200.387 89.901-200.387 200.336-200.387zM387.135 667.976c52.459 0 95.162-42.703 95.162-95.213 0-52.459-42.703-95.162-95.162-95.162s-95.162 42.703-95.162 95.162c0 52.51 42.703 95.213 95.162 95.213zM387.135 959.949c-213.463 0-387.135-173.672-387.135-387.186 0-198.956 311.383-575.671 346.629-617.659 10.012-12.157 24.723-19.053 40.506-19.053 15.528 0 30.188 6.794 40.353 18.746 35.501 42.499 346.782 420.899 346.782 617.965 0 213.514-173.672 387.186-387.135 387.186zM387.135 854.775c155.487 0 282.012-126.525 282.012-282.012 0-105.838-145.782-327.525-282.012-500.43-136.23 172.906-282.012 394.491-282.012 500.43 0.051 155.538 126.525 282.012 282.012 282.012z" />
<glyph unicode="&#xe91c;" glyph-name="question" horiz-adv-x="564" d="M0 697.065c7.354 168.913 117.527 262.935 286.534 262.935 161.559 0 277.644-79.313 277.644-236.497 0-239.523-235.055-237.987-235.055-452.515h-91.136c0 243.852 218.95 236.544 218.95 436.364 0 101.329-74.938 149.83-180.736 149.83-108.73 0-177.711-54.365-183.622-163.095l-92.579 2.979zM352.628 12.428c0-44.125-30.86-76.428-72.006-76.428-39.657 0-70.563 32.303-70.563 76.428s30.906 76.428 70.563 76.428c41.146-0.047 72.006-32.349 72.006-76.428z" />
<glyph unicode="&#xe91d;" glyph-name="bubble" horiz-adv-x="1066" d="M253.363-64v210.947h-125.509c-70.504 0-127.853 57.393-127.853 127.897v557.302c0 70.504 57.35 127.853 127.853 127.853h810.621c70.504 0 127.853-57.35 127.853-127.853v-557.302c0-70.504-57.35-127.853-127.853-127.853l-493.006 0.434-192.106-211.425zM127.853 873.173c-21.881 0-41.026-19.145-41.026-41.026v-557.302c0-21.881 19.145-41.026 41.026-41.026h212.337v-73.196l67.465 74.194 64.122-0.999h466.741c21.881 0 41.026 19.145 41.026 41.026v557.302c-0.043 21.881-19.189 41.026-41.069 41.026h-810.621z" />
<glyph unicode="&#xe91e;" glyph-name="zoom-thin" d="M1023.842-35.996l-316.28 316.241c144.732 159.487 140.613 406.709-13.289 560.63-76.822 76.802-178.955 119.125-287.643 119.125-108.648 0-210.801-42.323-287.663-119.145-158.616-158.635-158.616-416.71 0-575.345 76.862-76.842 179.014-119.165 287.663-119.165 102.014 0 197.987 37.688 272.968 105.836l316.241-316.201 28.004 28.024zM146.97 293.534c-143.168 143.168-143.168 376.15 0 519.338 69.376 69.316 161.586 107.52 259.659 107.52 98.092 0 190.283-38.203 259.639-107.539 143.168-143.168 143.168-376.15 0-519.338-69.356-69.356-161.566-107.539-259.639-107.559-98.073 0.020-190.283 38.223-259.659 107.579z" />
<glyph unicode="&#xe91f;" glyph-name="zoom-bold" d="M412.69 134.278c-110.281 0-213.957 42.974-291.931 120.948-160.961 160.961-160.961 422.94 0 583.863 77.975 77.937 181.65 120.911 291.931 120.911 110.243 0 213.957-42.974 291.894-120.948 160.961-160.923 160.961-422.902 0-583.863-77.937-77.937-181.65-120.911-291.894-120.911zM412.69 884.075c-90.009 0-174.627-35.039-238.253-98.702-131.35-131.35-131.35-345.117 0-476.505 63.663-63.625 148.243-98.702 238.253-98.702 89.971 0 174.589 35.077 238.215 98.702 131.35 131.388 131.35 345.155 0 476.505-63.625 63.663-148.243 98.702-238.215 98.702zM704.529 308.908l319.22-319.22-53.687-53.687-319.22 319.22 53.687 53.687z" />
<glyph unicode="&#xe920;" glyph-name="add-circle" d="M512 908.8c254.080 0 460.8-206.72 460.8-460.8s-206.72-460.8-460.8-460.8-460.8 206.72-460.8 460.8c0 254.080 206.72 460.8 460.8 460.8zM512 960c-282.752 0-512-229.222-512-512 0-282.752 229.248-512 512-512s512 229.248 512 512c0 282.778-229.248 512-512 512v0zM261.76 473.6h500.506v-51.2h-500.506v51.2zM486.4 698.24h51.2v-500.48h-51.2v500.48z" />
<glyph unicode="&#xe921;" glyph-name="chemia-circle" d="M563.046 422.4h-164.813l-82.406 142.72 82.406 142.746h164.813l82.406-142.746-82.406-142.72zM427.776 473.6h105.728l52.838 91.52-52.838 91.546h-105.728l-52.838-91.546 52.838-91.52zM355.226 539.52h-150.042v51.2h120.499l52.838 91.546-60.237 104.346 44.339 25.6 75.008-129.946zM765.952 305.254h-164.813l-82.406 142.746 82.406 142.72h164.813l82.406-142.72-82.406-142.746zM630.682 356.454h105.728l52.838 91.546-52.838 91.52h-105.728l-52.864-91.52 52.864-91.546zM796.621 435.2l-75.008 129.946 75.008 129.946 44.365-25.6-60.262-104.346 60.262-104.346zM563.046 188.109h-164.813l-82.406 142.797 82.406 142.694h164.813l82.406-142.694-82.406-142.797zM427.776 239.309h105.728l52.838 91.597-52.838 91.494h-105.728l-52.838-91.494 52.838-91.597zM593.715 83.789l-74.982 129.971 82.381 142.746h150.067v-51.2h-120.499l-52.864-91.546 60.262-104.371zM512 908.8c254.080 0 460.8-206.72 460.8-460.8s-206.72-460.8-460.8-460.8-460.8 206.72-460.8 460.8c0 254.080 206.72 460.8 460.8 460.8zM512 960c-282.752 0-512-229.222-512-512 0-282.752 229.248-512 512-512s512 229.248 512 512c0 282.778-229.248 512-512 512v0z" />
<glyph unicode="&#xe922;" glyph-name="box-circle" d="M512 908.8c254.080 0 460.8-206.72 460.8-460.8s-206.72-460.8-460.8-460.8-460.8 206.72-460.8 460.8c0 254.080 206.72 460.8 460.8 460.8zM512 960c-282.752 0-512-229.248-512-512s229.248-512 512-512 512 229.248 512 512-229.248 512-512 512v0zM736.666 168.627h-449.331l28.237 270.925-28.237 270.925h293.376v-51.2h-236.595l22.963-219.725-0.307-2.662-22.656-217.062h335.77l-22.963 219.725 11.571 110.874 50.918-5.299-10.982-105.574zM614.835 710.477h186.906v-51.2h-186.906v51.2zM682.675 778.317h51.2v-186.906h-51.2v186.906z" />
<glyph unicode="&#xe923;" glyph-name="pour-circle" d="M512 908.8c254.080 0 460.8-206.72 460.8-460.8s-206.72-460.8-460.8-460.8-460.8 206.72-460.8 460.8 206.72 460.8 460.8 460.8zM512 960c-282.752 0-512-229.222-512-512 0-282.752 229.248-512 512-512s512 229.248 512 512c0 282.778-229.248 512-512 512v0zM185.728 317.747l-22.246 46.106 266.701 128.589-119.68 248.141 46.106 22.246 141.926-294.272zM559.768 540.467l63.267-51.19-32.205-39.803-63.267 51.19 32.205 39.803zM518.042 388.275h51.2v-73.062h-51.2v73.062zM626.319 404.999l49.429-57.431-38.804-33.398-49.429 57.431 38.804 33.398zM703.283 388.275h51.2v-85.325h-51.2v85.325zM583.514 223.867l46.961-20.403-31.666-72.883-46.961 20.403 31.666 72.883zM677.425 253.536l42.68-61.679-42.102-29.133-42.68 61.679 42.102 29.133z" />
<glyph unicode="&#xe924;" glyph-name="house-circle" d="M512 908.8c254.080 0 460.8-206.72 460.8-460.8s-206.72-460.8-460.8-460.8-460.8 206.72-460.8 460.8 206.72 460.8 460.8 460.8zM512 960c-282.752 0-512-229.248-512-512s229.248-512 512-512 512 229.248 512 512-229.248 512-512 512v0zM768.154 194.227h-512.282v311.168l256.154 256.154 256.128-256.154v-311.168zM307.072 245.427h409.882v238.771l-204.928 204.954-204.954-204.954v-238.771z" />
<glyph unicode="&#xe92a;" glyph-name="arrow-right-big" horiz-adv-x="1240" d="M728.45 960l-66.994-66.994 397.651-397.651h-1059.108v-94.758h1059.108l-397.651-397.604 66.994-66.994 512.024 511.976z" />
<glyph unicode="&#xe92b;" glyph-name="download" horiz-adv-x="1160" d="M580.083 238.368l-292.537 292.554 24.007 24.007 268.53-268.547 268.53 268.547 24.007-24.007zM1160.167-64h-1160.167v308.48h33.957v-274.523h1092.253v264.591h33.957zM563.105 960h33.957v-697.625h-33.957v697.625z" />
<glyph unicode="&#xe92c;" glyph-name="bar-vertical" horiz-adv-x="20" d="M0 960h20.48v-1024h-20.48v1024z" />
<glyph unicode="&#xe92d;" glyph-name="check" horiz-adv-x="1316" d="M386.628-64l-386.628 386.628 94.978 94.978 291.65-291.65 834.044 834.044 94.978-94.978z" />
<glyph unicode="&#xe92e;" glyph-name="ekodarpol-logo" horiz-adv-x="5998" d="M168.861 821.526v-131.863h316.791v-132.782h-316.791v-133.73h361.408v-132.812h-530.269v663.969h519.803v-132.782h-350.942zM896.329 551.19l-88.225-97.681v-163.169h-168.831v663.969h168.831v-287.413l254.21 287.413h195.393l-246.621-275.050 262.748-388.919h-202.034l-175.471 260.85zM2003.199 623.288c0-193.496-153.652-340.507-359.511-340.507-204.88 0-358.562 146.063-358.562 340.507 0.031 193.465 153.713 336.712 358.562 336.712 205.828 0 359.511-144.165 359.511-336.712zM1457.782 622.339c0-111.942 86.328-198.27 187.804-198.27 102.455 0 184.040 86.328 184.040 198.27 0 111.911-81.585 196.372-184.040 196.372s-187.804-84.461-187.804-196.372zM2394.872 954.308c193.496 0 341.486-143.247 341.486-332s-148.939-332-344.302-332h-265.594v663.999h268.409zM2202.325 362.437h193.496c147.96 0 263.696 110.962 263.696 258.953 0 148.909-117.603 259.902-266.542 259.902h-190.65v-518.855zM2916.481 458.221l-73.965-167.882h-80.636l297.848 663.999h78.708l296.899-663.999h-82.503l-73.995 167.882h-362.357zM3096.696 868.011l-147.96-336.743h297.848l-149.888 336.743zM3836.496 501.859c-14.26-0.949-29.439-1.897-44.587-1.897h-176.45v-209.653h-75.862v663.999h252.312c165.985 0 261.799-81.585 261.799-222.935 0-110.014-53.125-184.009-148.939-215.315l155.58-225.75h-86.297l-137.555 211.551zM3791.909 573.009c120.48 0 188.752 53.125 188.752 156.498 0 100.527-68.273 151.785-188.752 151.785h-176.45v-308.283h176.45zM4474.79 954.308c164.087 0 258.953-81.585 258.953-222.935 0-147.011-94.866-231.411-258.953-231.411h-173.604v-209.653h-75.862v663.999h249.466zM4301.185 573.009h170.758c119.5 0 188.752 53.125 188.752 156.498 0 100.527-69.252 151.785-188.752 151.785h-170.758v-308.283zM5492.486 622.339c0-186.855-153.652-335.794-347.178-335.794-194.444 0-348.096 148.909-348.096 335.794 0 187.804 153.652 333.866 348.096 333.866 193.526 0 347.178-147.011 347.178-333.866zM4874.022 622.339c0-146.063 123.326-262.717 271.286-262.717 147.991 0 269.419 116.654 269.419 262.717s-121.428 261.799-269.419 261.799c-147.929 0-271.286-115.736-271.286-261.799zM5997.968 362.437v-72.098h-367.069v663.969h75.862v-591.901h291.207zM79.412 117.408c45.26 0 71.272-22.37 71.272-61.51 0-40.67-25.981-64.325-71.272-64.325h-41.435v-54.288h-30.357v180.123h71.792zM37.977 18.87h40.15c27.787 0 43.485 11.843 43.485 36.294 0 23.655-15.699 35.009-43.485 35.009h-40.15v-71.302zM460.069-8.152c-2.571-0.275-5.417-0.275-8.232-0.275h-42.72v-54.288h-30.357v180.123h73.077c46.056 0 72.557-22.37 72.557-61.51 0-28.827-13.404-49.147-37.304-58.419l40.394-60.194h-34.488l-32.928 54.563zM451.837 18.87c27.787 0 43.73 11.843 43.73 36.294 0 23.655-15.944 35.009-43.73 35.009h-42.72v-71.272h42.72zM789.773-35.448h110.901v-27.266h-152.061v21.85l109.861 130.976h-106.525v27.266h147.44v-21.88l-109.616-130.945zM1205.959-62.715h-30.112v58.909l-67.141 121.183h30.602l51.472-87.736 50.432 87.736h30.877l-66.131-120.174v-59.918zM1571.682-7.142c0-36.294-21.36-56.858-56.093-56.858-21.605 0-39.629 9.548-53.002 25.981l14.413 23.166c11.843-12.853 25.981-19.799 38.344-19.799 16.219 0 25.736 10.037 25.736 28.552v96.243h-62.275v27.266h92.877v-124.55zM1833.511-22.045l-17.229-40.67h-31.642l79.504 180.123h31.153l78.739-180.123h-32.407l-17.229 40.67h-90.888zM1878.802 84.97l-33.968-80.024h67.936l-33.968 80.024zM2222.92-35.448h110.901v-27.266h-152.091v21.85l109.861 130.976h-106.525v27.266h147.44v-21.88l-109.585-130.945zM2691.588-62.715l-95.967 129.171v-129.171h-30.357v180.123h29.837l96.488-129.415v129.415h29.867v-180.123h-29.867zM3040.847-62.715h-30.112v58.909l-67.141 121.183h30.602l51.472-87.736 50.401 87.736h30.877l-66.1-120.174v-59.918zM3719.627-62.715l-95.967 129.171v-129.171h-30.357v180.123h29.867l96.457-129.415v129.415h29.867v-180.123h-29.867zM4020.536-22.045l-17.229-40.67h-31.642l79.504 180.123h31.153l78.739-180.123h-32.438l-17.229 40.67h-90.857zM4065.796 84.97l-33.937-80.024h67.936l-33.999 80.024zM4431.029 90.142v-152.856h-30.357v152.856h-56.858v27.266h144.38v-27.266h-57.164zM4865.209 11.893c0-47.066-29.592-75.893-78.218-75.893s-78.463 28.827-78.463 75.893v105.515h30.357v-105.515c0-30.357 18.759-48.626 48.351-48.626 29.347 0 47.647 18.025 47.647 48.626v105.515h30.326v-105.515zM5187.966-8.152c-2.571-0.275-5.417-0.275-8.232-0.275h-42.72v-54.288h-30.388v180.123h73.108c46.056 0 72.557-22.37 72.557-61.51 0-28.827-13.404-49.147-37.304-58.419l40.364-60.194h-34.458l-32.928 54.563zM5179.765 18.87c27.787 0 43.761 11.843 43.761 36.294 0 23.655-15.944 35.009-43.761 35.009h-42.72v-71.272h42.72zM5517.702-35.448h110.901v-27.266h-152.061v21.85l109.861 130.976h-106.525v27.266h147.44v-21.88l-109.616-130.945zM5890.371 90.142v-48.626h88.011v-27.266h-88.011v-49.667h101.384v-27.266h-131.772v180.123h128.681v-27.266h-98.293z" />
<glyph unicode="&#xe92f;" horiz-adv-x="1010" d="M497.899-50.023c-274.541 0-497.899 223.35-497.899 497.899s223.357 497.899 497.899 497.899c274.541 0 497.899-223.357 497.899-497.899s-223.357-497.899-497.899-497.899zM497.899 931.549c-266.696 0-483.673-216.977-483.673-483.673s216.977-483.673 483.673-483.673 483.673 216.977 483.673 483.673c0 266.696-216.977 483.673-483.673 483.673z" />
<glyph unicode="&#xe930;" horiz-adv-x="1010" d="M497.899-64c-131.147 0-262.286 49.918-362.129 149.754l30.173 30.173c183.042-183.028 480.856-183.035 663.905 0 183.020 183.042 183.020 480.864 0 663.898-88.662 88.662-206.55 137.498-331.949 137.498v42.677c136.794 0 265.401-53.275 362.129-149.996 199.665-199.679 199.665-524.572 0-724.251-99.836-99.843-230.982-149.754-362.129-149.754z" />
</font>
</defs>
</svg>
